The Glass Castle 2017 720p BluRay x264 Movie Free Download

The Glass Castle 2017 720p BluRay x264 Movie Free Download Hd Free This movie size is 855 MiB its movie genres are BiographyDrama,  The Glass Castle free download in English full hd length is   .

Director: Destin Daniel Cretton
Writers: Destin Daniel Cretton , Andrew Lanham
Stars: Brie Larson, Woody Harrelson, Naomi Watts

The Glass Castle Poster

The Glass Castle 2017 720p BluRay x264 Movie Free Download


General
Format                                   : Matroska
Format version                           : Version 4 / Version 2
File size                                : 1.23 GiB
Duration                                 : 2 h 6 min
Overall bit rate                         : 1 389 kb/s

Video
ID                                       : 1
Format                                   : AVC
Format/Info                              : Advanced Video Codec
Format profile                           : [email protected]
Format settings                          : CABAC / 4 Ref Frames
Format settings, CABAC                   : Yes
Format settings, RefFrames               : 4 frames
Codec ID                                 : V_MPEG4/ISO/AVC
Duration                                 : 2 h 6 min
Bit rate                                 : 1 200 kb/s
Width                                    : 1 280 pixels
Height                                   : 536 pixels
Display aspect ratio                     : 2.40:1
Frame rate mode                          : Constant
Frame rate                               : 23.976 (23976/1000) FPS
Color space                              : YUV
Chroma subsampling                       : 4:2:0
Bit depth                                : 8 bits
Scan type                                : Progressive
Bits/(Pixel*Frame)                       : 0.073
Stream size                              : 1.06 GiB (86%)
Writing library                          : x264 core 148 r2643 5c65704
Default                                  : Yes
Forced                                   : No

Audio
ID                                       : 2
Format                                   : AC-3
Format/Info                              : Audio Coding 3
Format settings, Endianness              : Big
Codec ID                                 : A_AC3
Duration                                 : 2 h 6 min
Bit rate mode                            : Constant
Bit rate                                 : 192 kb/s
Channel(s)                               : 6 channels
Channel positions                        : Front: L C R, Side: L R, LFE
Sampling rate                            : 48.0 kHz
Frame rate                               : 31.250 FPS (1536 SPF)
Bit depth                                : 16 bits
Compression mode                         : Lossy
Stream size                              : 174 MiB (14%)
Language                                 : English
Service kind                             : Complete Main
Default                                  : Yes
Forced                                   : No

Text
ID                                       : 3
Format                                   : VobSub
Codec ID                                 : S_VOBSUB
Duration                                 : 2 h 1 min
Bit rate                                 : 4 810 b/s
Count of elements                        : 1793
Stream size                              : 4.19 MiB (0%)
Language                                 : English
Default                                  : Yes
Forced                                   : No

The Glass Castle free download in English full hd

Quality: BluRay
Size: 1.23 GB
Country Hollywood
Language:  English
Uploaded Date: 20 November 2017

Download Full Hd

Movie Story: A young girl comes of age in a dysfunctional family of nonconformist nomads with a mother who’s an eccentric artist and an alcoholic father who would stir the children’s imagination with hope as a distraction to their poverty.

The Glass Castle full movie download in english
The Glass Castle 2017 full movie download
The Glass Castle 2017 full movie free download in hindi
download The Glass Castle 2017 full movie in hindi hd 1080p
The Glass Castle movie download in hindi hd 720p free
avengers 2017 hindi 720p
The Glass Castle 2017 full movie in hindi free download in hd
The Glass Castle full movie in hindi download
The Glass Castle 2017 full movie in hindi watch online
The Glass Castle full movie free download in hindi 480p
The Glass Castle 2017 full movie in hindi 720p
The Glass Castle 720p dual audio
The Glass Castle 2017 full movie in hindi worldfree4u

Leave a Reply