Mr Black Green Star 2015 720p HD Dual Audio Hindi Chinese Free

Mr Black Green Star 2015 720p HD Dual Audio Hindi Chinese Free This movie size is 855 MiB its movie genres are Animation Mr Black Green Star 2015 720p free download in Hindi full hd length is 120Min. Mr Black Green Star 2015 720p IMDB Rating is 4.6/10. Mr. Black: Green Star (Chinese: 黑猫警长之翡翠之星) is a 2015 Chinese animated science fiction action comedy film directed by Shengjun Yu, Xuegang Shi, Song Qing and Yi Shi. It is based on the Chinese Black Cat Detective animated series, and was released on August 7, 2015.

Director: Sheng-jun Yu
Stars: Zijie Lin, Tianhao Wu, Lu Zhao

Mr Black Green Star 2015 720p HD Dual Audio Hindi Chinese

Free

http://www.imdb.com/title/tt4885924

Format                         : Matroska
Format version                 : Version 4 / Version 2
File size                      : 384 MiB
Duration                       : 1 h 21 min
Overall bit rate               : 657 kb/s
Movie name                     : Mr Black Green Star 2015

Video
Format                         : AVC
Codec ID                       : V_MPEG4/ISO/AVC
Duration                       : 1 h 21 min
Bit rate                       : 500 kb/s
Width                          : 1 280 pixels
Height                         : 544 pixels
Display aspect ratio           : 2.35:1
Frame rate mode                : Constant
Frame rate                     : 23.888 FPS
Stream size                    : 292 MiB (76%)
Writing library                : x264

Audio #1
Format                         : AAC
Duration                       : 1 h 21 min
Bit rate                       : 92.7 kb/s
Channel(s)                     : 6 channels
Channel positions              : Front: L C R, Side: L R, LFE
Sampling rate                  : 44.1 kHz
Frame rate                     : 43.066 FPS (1024 SPF)
Stream size                    : 54.1 MiB (14%)
Language                       : Hindi

Audio #2
Format                         : AAC
Duration                       : 1 h 21 min
Bit rate                       : 61.7 kb/s
Channel(s)                     : 6 channels
Channel positions              : Front: L C R, Side: L R, LFE
Sampling rate                  : 44.1 kHz
Frame rate                     : 43.066 FPS (1024 SPF)
Stream size                    : 36.1 MiB (9%)
Language                       : Chinese

IMDB:

Original Title: Hei mao jing zhang zhi fei cui zhi xing
Title: Mr Black: Green Star
Year: 2015
Votes: 17
Rating: 4.6/10
Language: Mandarin
Country: China
All Genres: Animation
Plot Outline: In this exciting Chinese action flick, Mr. Black is back! After notorious criminal rat, One-Ear escapes, Mr. Black organises a all-points bulletin to capture him. But more trouble is …
Director: Sheng-jun Yu

Cast:
Zijie Lin as
Tianhao Wu as
Lu Zhao as

Mr Black Green Star 2015 720p free download in Hindi full hd

Quality: 720p
Size: 383.84 MB
Country Bollywood
Language:  Hindi
Uploaded Date: 20 December 2017

Download Full Hd

Movie Story: The movie begins with a shot of the prison Mr Black Green Star dual audio 720p bluray in which one-ear mouse is being locked up. However, a meteor Mr Black Green Star full movie download free storm damages the prison, Mr Black Green Star dual audio 720p bluray allowing one-ear mouse to get away. Mr Black Green Star full movie download free He is chased down by officers and cornered Mr Black Green Star dual audio 720p bluray off but falls into a crater made by Mr Black Green Star full movie download free one of the meteors. Suddenly, a giant ape coem out of the crater and starts beating up the police officers. Just then, the goose dude comes and brings with him a whole squad Mr Black Green Star dual audio 720p bluray of cat officers who then begin singing in order to introduce the main character: Mr Black Green Star dual audio 720p bluray inspector black cat Mr Black Green Star full movie download free. Inspector black cat tries to get the ape to surrender but he gets away Mr Black Green Star full movie download free.

Mr Black Green Star full movie download in english
Mr Black Green Star full movie in hindi download filmywap
Mr Black Green Star full movie download in hindi hd 1080p
Mr Black Green Star blu ray free download
Mr Black Green Star full movie download filmywap
Mr Black Green Star full movie for free
Mr Black Green Star full movie in hindi download filmywap 2017
download Mr Black Green Star in hindi hd
filmywap hollywood movies in hindi 2017 Mr Black Green Star
Mr Black Green Star filmywap download
Mr Black Green Star full movie in hindi download 480p
Mr Black Green Star full movie in hindi free download hd
Mr Black Green Star movie free download in hindi
Mr Black Green Star 480p dual audio download
Mr Black Green Star 2015 hindi dubbed download

Leave a Reply

%d bloggers like this: