Freight 2010 720p BluRay Dual Audio English Hindi Dubbed Free Movie

Freight 2010 720p BluRay Dual Audio English Hindi Dubbed Free Movie This movie categories are Action, Crime, Drama, Thriller Freight hindi dual audio free download in hindi dubbed is released in 2010.


Title: Freight
Year: 2010
Runtime: 92 minutes
Language: English
Country: UK
All Genres: Action, Crime, Drama, Thriller
Director: Stuart St. Paul
Writing By: Stuart St. Paul,
Produced By: Luke Aikman,Martin Campbell,Martin Campbell,Yousef El Awage,Nader Mabadi,Billy Murray,Stuart St. Paul,Nicola Swain,Andy Thompson,Josie Tomlin,
Music: Mark Blackledge
Cast:
Billy Murray as Gabe Taylor
Craig Fairbrass as Jed
Laura Aikman as Julie Taylor
Sam Kennard as Stevie Taylor
Danny Midwinter as Cristi
Luke Aikman as Karl
Zsolt Nagy as Fryderyck
Jean Heard as Rhoda Taylor
Andrew Tiernan as Stanni
Matt Kennard as Sonny

Freight 2010 720p BluRay Dual Audio
Quality: 720P
Size:  –
Country  India
Language:  Hindi
Uploaded Date: 27 Sep 2017

Download Full Hd

Format                         : Matroska
Format version                 : Version 4 / Version 2
File size                      : 587 MiB
Duration                       : 1 h 30 min
Overall bit rate               : 907 kb/s
Movie name                     : Freight 2010

Video
Format                         : AVC
Codec ID                       : V_MPEG4/ISO/AVC
Duration                       : 1 h 30 min
Bit rate                       : 738 kb/s
Width                          : 1 280 pixels
Height                         : 544 pixels
Display aspect ratio           : 2.35:1
Frame rate mode                : Constant
Frame rate                     : 23.976 (24000/1001) FPS
Stream size                    : 477 MiB (81%)
Writing library                : x264

Audio #1
ID                             : 2
Format                         : AAC
Duration                       : 1 h 30 min
Bit rate                       : 72.0 kb/s
Channel(s)                     : 6 channels
Channel positions              : Front: L C R, Side: L R, LFE
Sampling rate                  : 44.1 kHz
Frame rate                     : 43.066 FPS (1024 SPF)
Stream size                    : 47.4 MiB (8%)
Language                       : English

Audio #2
Format                         : AAC
Duration                       : 1 h 30 min
Bit rate                       : 93.7 kb/s
Channel(s)                     : 6 channels
Channel positions              : Front: L C R, Side: L R, LFE
Sampling rate                  : 44.1 kHz
Frame rate                     : 43.066 FPS (1024 SPF)
Stream size                    : 60.6 MiB (10%)
Language                       : Hindi

Movie Story: Freight 2010 720p BluRay Dual Audio English Hindi Dubbed A gang of Russians sells Eastern Europeans in Britain, until they start a war with locals.

new hindi movies 2010 full movies online
hindi movies 2010 full movie list
new hindi full movie 2017 download
hindi full movie free download
hindi movies download 2015
hindi movies 2010 full movie online
mela 2000
hindi movies 2010 full movie new
samantha movie in hindi dubbed 2017 download
2017 new hindi dubbed full movie samantha naga chaitanya
samantha movies in hindi dubbed full 2017
samantha movies in hindi dubbed full 2016
samantha full movie hindi
samantha new movie 2017 hindi dubbed
thrayam full movie in hindi dubbed
romeo 2014 film

Leave a Reply