Dharam Yudh Morcha 2017 720p HDRip Free Movie Download Full

Dharam Yudh Morcha 2017 720p HDRip Free Movie Download Full This movie size is 686 MiB its movie genres are ActionBiography Dharam Yudh Morcha free download in Punjabi full hd length is 2h 2min. Dharam Yudh Morcha is a Punjabi film about the era from 1947 to 1984 and highlighting the fight of the Sikh people of India.

Director: Naresh Garg
Writer: Karamjit Singh Batth
Stars: Karamjit Singh Batth, Amritpal Singh Billa, Sunny Gill

Dharam Yudh Morcha 2017 720p HDRip Free Movie Download Full Moviemart.com

Format                         : Matroska
Format version                 : Version 4 / Version 2
File size                      : 686 MiB
Duration                       : 2 h 1 min
Overall bit rate               : 787 kb/s
Movie name                     : Dharam Yudh Morcha 2017 GD @ GOPISAHI

Video
Format                         : AVC
Codec ID                       : V_MPEG4/ISO/AVC
Duration                       : 2 h 1 min
Bit rate                       : 699 kb/s
Width                          : 1 280 pixels
Height                         : 492 pixels
Display aspect ratio           : 2.602
Frame rate mode                : Constant
Frame rate                     : 24.000 FPS
Stream size                    : 609 MiB (89%)
Title                          : GD @ GOPISAHI
Writing library                : x264 core 148 r2708 86b7198
Language                       : Panjabi

Audio
Format                         : AAC
Duration                       : 2 h 1 min
Bit rate                       : 86.2 kb/s
Channel(s)                     : 6 channels
Channel positions              : Front: L C R, Side: L R, LFE
Sampling rate                  : 44.1 kHz
Frame rate                     : 43.066 FPS (1024 SPF)
Stream size                    : 75.1 MiB (11%)
Title                          : GD @ GOPISAHI
Language                       : Panjabi

Dharam Yudh Morcha free download in Punjabi full hd

Quality:  Full Hd
Size: 686 MiB
Country Bollywood
Language:  Punjabi
Uploaded Date: 19 Oct 2017

Download Full Hd

Image result

Image result for thanks gifs

Movie Story: dharam yudh morcha full movie filmywap It’s based on True story.. Dharam Yudh Morcha is a fact-based Punjabi film covering the era from 1947 to 1984 and highlighting the fight of the Sikh people of India to safeguard the fundamental rights of the sikh religion and linguistic minorities and to establish an equal Sikh Rights in the Region of India dharam yudh morcha full movie download filmywap.

dharam yudh morcha (punjabi) full movie download
dharam yudh morcha full movie free download
dharam yudh morcha download
dharam yudh full movie download
dharam yudh morcha full movie filmywap
dharm yudh morcha full movies
dharam yudh morcha full movie download filmywap
dharam yudh morcha (punjabi) full movie download
dharam yudh full movie download
dharam yudh morcha punjabi movie download
dharm yudh movie download
dharam yudh morcha download
dharam yudh morcha full movie filmywap
dharam yudh morcha full movie download free
dharam yudh morcha full movie download filmywap
dharm yudh morcha full movies
dharam yudh morcha (punjabi) full movie download
dharam yudh morcha full movie download hd
dharam yudh full movie download
dharam yudh morcha punjabi movie download

Leave a Reply