Dangerous Game 2017 720p HDRip x264 AAC Free Movie Download

Dangerous Game 2017 720p HDRip x264 AAC Free Movie Download Hd Free This movie size is 871.52 MB its movie genres are  Action, Dangerous Game free download in English full hd length is .

Director: Richard Colton
Stars: Amar Adatia, Calum Best, Darren Day

Dangerous Game Poster

Dangerous Game 2017 720p HDRip x264 AAC Free Movie Download

Format                      : Matroska
Format version              : Version 4 / Version 2
File size                   : 872 MiB
Duration                    : 1 h 33 min
Overall bit rate            : 1 299 kb/s

Video
ID                          : 1
Format                      : AVC
Format/Info                 : Advanced Video Codec
Format profile              : [email protected]
Format settings, CABAC      : Yes
Format settings, RefFrames  : 8 frames
Codec ID                    : V_MPEG4/ISO/AVC
Duration                    : 1 h 33 min
Bit rate                    : 1 200 kb/s
Width                       : 1 280 pixels
Height                      : 532 pixels
Display aspect ratio        : 2.40:1
Frame rate mode             : Constant
Frame rate                  : 24.000 FPS

Audio
ID                          : 2
Format                      : AAC
Format/Info                 : Advanced Audio Codec
Format profile              : LC
Codec ID                    : A_AAC
Duration                    : 1 h 33 min
Bit rate                    : 96.0 kb/s
Channel(s)                  : 2 channels
Channel positions           : Front: L R
Sampling rate               : 48.0 kHz
Frame rate                  : 46.875 FPS (1024 SPF)
Compression mode            : Lossy
Stream size                 : 64.6 MiB (7%)
Title                       : Stereo
Language                    : English

Text #1
ID                          : 3
Format                      : ASS
Codec ID                    : S_TEXT/ASS
Codec ID/Info               : Advanced Sub Station Alpha
Duration                    : 1 h 31 min
Bit rate                    : 87 b/s
Count of elements           : 798
Compression mode            : Lossless
Stream size                 : 58.6 KiB (0%)
Language                    : Danish
Default                     : No
Forced                      : No

Dangerous Game free download in English full hd

Quality: HDRip
Size: 871.52 MB
Country Hollywood
Language:  English
Uploaded Date: 19 November 2017

Download Full Hd

Movie Story: Dangerous Game is a supposed action packed British heist movie. When Chris (Calum Best) gets mixed up with the Russian Mafia and Algerian Gangsters while trying to help his best friend pay off a large debt, he has to decide if he puts his career on the rocks by embarking on a spree of dangerous robberies that could end up with him in prison, or possibly dead.

Dangerous Game full movie hd download 1080p
Dangerous Game full movie free download 2017
Dangerous Game full movie download hd free
Dangerous Game full movie download hd filmywap
Dangerous Game movie download 2017
Dangerous Game full movie download 300mb
Dangerous Game full movie hd download 1080p free download
Dangerous Game full movie hd download 1080p
Dangerous Game full movie download hd filmywap
Dangerous Game full movie hd online
Dangerous Game full movie online
Dangerous Game full movie online watch

Leave a Reply