Burning Bright 2010 720p BRRip x264 Dual Audio Movie Full Hd Free

Burning Bright 2010 720p BRRip x264 Dual Audio Movie Full Hd Free This movie size is 2.02 GiB its movie genres are  DramaHorrorThriller Burning Bright free download in hindi dubbed full hd length is . Burning Bright is a 2010 horror-thriller directed by Carlos Brooks, This Film Was Released on  2 May 2012 in Bahrain.

Director: Carlos Brooks
Writers: Christine Coyle Johnson, Julie Prendiville Roux
Stars: Briana Evigan, Charlie Tahan, Garret Dillahunt

Burning Bright 2010 720p BRRip x264 Dual Audio Movie Full Hd Free Moviemart.com

General
Format                                   : Matroska
Format version                           : Version 4 / Version 2
File size                                : 2.02 GiB
Duration                                 : 1 h 29 min
Overall bit rate                         : 3 231 kb/s

Video
ID                                       : 1
Format                                   : AVC
Format/Info                              : Advanced Video Codec
Format profile                           : [email protected]
Format settings                          : CABAC / 3 Ref Frames
Format settings, CABAC                   : Yes
Format settings, RefFrames               : 3 frames
Codec ID                                 : V_MPEG4/ISO/AVC
Duration                                 : 1 h 29 min
Bit rate                                 : 2 973 kb/s
Width                                    : 1 280 pixels
Height                                   : 720 pixels
Display aspect ratio                     : 16:9
Frame rate mode                          : Constant
Frame rate                               : 23.976 (24000/1001) FPS
Color space                              : YUV
Chroma subsampling                       : 4:2:0
Bit depth                                : 8 bits
Scan type                                : Progressive
Bits/(Pixel*Frame)                       : 0.135
Stream size                              : 1.86 GiB (92%)
Default                                  : Yes
Forced                                   : No

Audio #1
ID                                       : 2
Format                                   : AC-3
Format/Info                              : Audio Coding 3
Format settings, Endianness              : Big
Codec ID                                 : A_AC3
Duration                                 : 1 h 29 min
Bit rate mode                            : Constant
Bit rate                                 : 128 kb/s
Channel(s)                               : 2 channels
Channel positions                        : Front: L R
Sampling rate                            : 48.0 kHz
Frame rate                               : 31.250 FPS (1536 SPF)
Bit depth                                : 16 bits
Compression mode                         : Lossy
Stream size                              : 81.9 MiB (4%)
Language                                 : Hindi
Service kind                             : Complete Main
Default                                  : Yes
Forced                                   : No

Audio #2
ID                                       : 3
Format                                   : AC-3
Format/Info                              : Audio Coding 3
Format settings, Endianness              : Big
Codec ID                                 : A_AC3
Duration                                 : 1 h 29 min
Bit rate mode                            : Constant
Bit rate                                 : 128 kb/s
Channel(s)                               : 2 channels
Channel positions                        : Front: L R
Sampling rate                            : 44.1 kHz
Frame rate                               : 28.711 FPS (1536 SPF)
Bit depth                                : 16 bits
Compression mode                         : Lossy
Stream size                              : 81.9 MiB (4%)
Language                                 : English
Service kind                             : Complete Main
Default                                  : No
Forced                                   : No

Text
ID                                       : 4
Format                                   : UTF-8
Codec ID                                 : S_TEXT/UTF8
Codec ID/Info                            : UTF-8 Plain Text
Duration                                 : 1 h 19 min
Bit rate                                 : 26 b/s
Count of elements                        : 627
Stream size                              : 15.3 KiB (0%)
Language                                 : English
Default                                  : Yes
Forced                                   : No

Burning Bright free download in hindi dubbed full hd

Quality:  Full Hd
Size: 2.02 GiB
Country Hollywood
Language:  Hindi
Uploaded Date: 17 Oct 2017

Download Full Hd

Image result

Image result for thanks gifs

Movie Story: burning bright full movie hd In Montgomery County, Kelly Taylor is ready to go to college and takes her autistic brother, Tom, to a specialized institution. burning bright full movie in hindi free download However, the bank informs her that she does not have sufficient funds in her account to honor her check. Her stepfather, Johnny Gaveneau, withdrew the money from her account the day before. When Kelly arrives home, Johnny reveals that he used the money to buy a tiger for his ‘safari show’ project. burning bright full movie in tamil In addition he has the house reinforced, in order to protect it from hurricanes, so all the windows and external doors are covered with wood. burning bright full movie free download When Kelly awakes, she finds that the starving tiger is inside the house and Tom and she are trapped with the ravenous animal bright full movie watch online.

burning bright full movie tamil dubbed
burning bright 2010 full movie download
burning bright tiger movie online
burning bright full movie free download
burning bright full movie hd
burning bright full movie in hindi free download
burning bright full movie in tamil
burning bright full movie watch online
burning bright full movie in hindi download
burning bright tiger full movie
burning bright tiger movie online
burning bright hd movie download
burning bright full movie in hindi download
burning bright full movie in hindi watch online
burning bright full movie free download
burning bright 2010 full movie
burning bright 720p
burning bright 2010 movie download
burning bright khatrimaza

Leave a Reply