Annabelle Creations 2017 TS XviD AC3 Download Free Movie Hd

Annabelle Creations 2017 TS XviD AC3 Download Free Movie Hd This movie size is 1.44 GB its movie genres are  HorrorMysteryThriller Annabelle Creations free download in English full hd length is 1h 49min. Annabelle: Creation is a 2017 American supernatural horror film released in the United States on August 11, 2017.

Director: David F. Sandberg
Writers: Gary Dauberman, Gary Dauberman
Stars: Anthony LaPaglia, Samara Lee, Miranda Otto

Annabelle Creations 2017 TS XviD AC3 Download Free Movie Hd Moviemart.com

General

Format : AVI
Format/Info : Audio Video Interleave
File size : 1.42 GiB
Duration : 1 h 48 min
Overall bit rate : 1 871 kb/s

Video

ID : 0
Format : MPEG-4 Visual
Format profile : Advanced [email protected]
Format settings, BVOP : 2
Format settings, QPel : No
Format settings, GMC : No warppoints
Format settings, Matrix : Default (H.263)
Codec ID : XVID
Codec ID/Hint : XviD
Duration : 1 h 48 min
Bit rate : 1 670 kb/s
Width : 720 pixels
Height : 304 pixels
Display aspect ratio : 2.35:1
Frame rate : 29.970 (30000/1001) FPS
Color space : YUV
Chroma subsampling : 4:2:0
Bit depth : 8 bits
Scan type : Progressive
Compression mode : Lossy
Bits/(Pixel*Frame) : 0.255
Stream size : 1.27 GiB (89%)
Writing library : XviD 67

Audio

ID : 1
Format : AC-3
Format/Info : Audio Coding 3
Format settings, Endianness : Big
Codec ID : 2000
Duration : 1 h 48 min
Bit rate mode : Constant
Bit rate : 192 kb/s
Channel(s) : 2 channels
Channel positions : Front: L R
Sampling rate : 44.1 kHz
Frame rate : 28.711 FPS (1536 SPF)
Bit depth : 16 bits
Compression mode : Lossy
Stream size : 150 MiB (10%)
Alignment : Aligned on interleaves
Interleave, duration : 70 ms (2.09 video frames)
Interleave, preload duratio : 208 ms
Title : English
Service kind : Complete Main

Annabelle Creations free download in English full hd

Quality: XviD
Size: 1.44 GB
Country Hollywood
Language:  English
Uploaded Date: 21 Oct 2017

Download Full Hd

Image result

Image result for thanks gifs

Movie Story: Annabelle Creations kickass 1080p full movie download 12 years after the tragic death of their little girl, a dollmaker and his wife welcome a nun and several girls from a shuttered orphanage into their home, where they soon become the target of the dollmaker’s possessed creation, Annabelle Annabelle Creations yify download.

Annabelle Creations download kickass 1080p
Annabelle Creations hindi download utorrent
Annabelle Creations kickass yify
Annabelle Creations full movie download kickass
Annabelle Creations torrentking
Annabelle Creations bittorrent download
Annabelle Creations yify 720p
Annabelle Creations kickass 1080p full movie download
Annabelle Creations full movie download kickass
Annabelle Creations yify kickass
Annabelle Creations torrentking
Annabelle Creations yify kickass
Annabelle Creations bittorrent download
Annabelle Creations full movie in hindi download utorrent in hd
Annabelle Creations hindi dubbed hd full movie download
Annabelle Creations full movie in hindi download utorrent kickass
Annabelle Creations download in hindi hd 1080p kickass
Annabelle Creations full movie in hindi hd 1080p watch online
Annabelle Creations in hindi full movie hd 720p
Annabelle Creations full movie download kickass
Annabelle Creations dual audio 720p download
Annabelle Creations hindi dubbed download 720p mkv

Leave a Reply