Aksar 2 2017 Hindi PRE-DVDRip x264 Download Free

Aksar 2 2017 Hindi PRE-DVDRip x264 Download Free This movie size is 874.48 MB its movie genres are CrimeDramaMystery Aksar 2 2017 Hindi PRE-DVDRip free download in Hindi full hd length is 2h 7min. Aksar 2 2017 Hindi PRE-DVDRip IMDB Rating is 5.3/10. The motion poster of the movie was released on 4 August 2017 on YouTube while trailer of the film was released on 28 August 2017. The film released on 17 November 2017.

Director: Ananth Narayan Mahadevan
Stars: Zarine Khan, Gautam Rode, Lillete Dubey

Aksar 2 2017 Hindi PRE-DVDRip x264 Download Free

http://www.imdb.com/title/tt5784860

Format                                   : Matroska
Format version                           : Version 4 / Version 2
File size                                : 874 MiB
Duration                                 : 1 h 50 min
Overall bit rate                         : 1 107 kb/s

Video
ID                                       : 1
Format                                   : AVC
Format/Info                              : Advanced Video Codec
Format profile                           : [email protected]
Format settings                          : CABAC / 4 Ref Frames
Format settings, CABAC                   : Yes
Format settings, RefFrames               : 4 frames
Codec ID                                 : V_MPEG4/ISO/AVC
Duration                                 : 1 h 50 min
Bit rate                                 : 900 kb/s
Width                                    : 720 pixels
Height                                   : 304 pixels
Display aspect ratio                     : 2.35:1
Frame rate mode                          : Constant
Frame rate                               : 25.000 FPS
Color space                              : YUV
Chroma subsampling                       : 4:2:0
Bit depth                                : 8 bits
Scan type                                : Progressive
Bits/(Pixel*Frame)                       : 0.164
Stream size                              : 721 MiB (82%)
Writing library                          : x264 core 148 r2643 5c65704
Default                                  : Yes
Forced                                   : No

Audio
ID                                       : 2
Format                                   : AC-3
Format/Info                              : Audio Coding 3
Format settings, Endianness              : Big
Codec ID                                 : A_AC3
Duration                                 : 1 h 50 min
Bit rate mode                            : Constant
Bit rate                                 : 192 kb/s
Channel(s)                               : 6 channels
Channel positions                        : Front: L C R, Side: L R, LFE
Sampling rate                            : 48.0 kHz
Frame rate                               : 31.250 FPS (1536 SPF)
Bit depth                                : 16 bits
Compression mode                         : Lossy
Stream size                              : 152 MiB (17%)
Service kind                             : Complete Main
Default                                  : Yes
Forced                                   : No

Aksar 2 2017 Hindi PRE-DVDRip free download in Hindi full hd

Quality: PRE-DVDRip
Size: 874.48 MB
Country Bollywood
Language:  Hindi
Uploaded Date: 17 December 2017

Download Full Hd

Movie Story: When the governess of an ageing billionaire Mrs Khambatta dies under mysterious circumstances her financial manager Pat is called on to recruit a lady to fill the vacancy immediately. sd movies point julie 2 But Pat hadn’t expected the stunning Sheena Roy to apply for the post. And despite Khambatta wanting an elderly lady, Pat manages to convince her to give Sheena a chance.

Sheena isn’t filmywap 2017 aksar 2 aware that her appointment comes with a price tag. Smitten by Sheena, Pat now expects her to return the favour or lose the job. Sheena of course, cannot reveal her predicament to her boyfriend Ricky who is into bad times and badly needs the money to survive. Sheena, after much resistance, aksar 2 sd movies point is forced to submit to Pat’s amorous advances. But just as Pat thinks that his lady-killer image has scored another hit, he suddenly finds himself in the middle of a scandal about to blow up his life and career.

The evening with Sheena was not without its riders. She lets him into a secret about Khambatta’s will that gives Pat sleepless nights. And even as he discovers the truth about Sheena’s revelation, sd movies point julie 2 a bigger shock awaits him. Sheena changed the will of Khambatta with aksar 2 full movie watch online the help of the lawyer of Khambatta and she killed everybody in the end and inherit the properties aksar 2 full movie watch online.

aksar 2 full movie hd download
aksar 2 movie download
aksar 2 movie download hd
aksar 2 full movie free download
aksar 2 download
aksar 2 movie watch online
aksar 2 full movie download moviescounter
aksar 2 worldfree4u

Reviews:

Takethispunch 22 November 2017

When the governess of an aging billionaire aksar 2 full movie hd download Mrs Khambatta dies under mysterious circumstances her financial manager Pat is called on to recruit a lady to fill the vacancy immediately. aksar 2 full movie hd download But Pat hadn’t expected the stunning Sheena Roy to apply for the post. aksar 2 full movie hd download And despite Khambatta wanting an elderly lady, Pat manages to convince her to give Sheena a chance.

Sheena isn’t aware that her appointment comes with a price tag. aksar 2 full movie hd download Smitten by Sheena, Pat now expects her to return the favor or lose the job aksar 2 full movie hd download.

DG_Boy 19 November 2017
The movie is really very disappointing and unsatisfying nor aksar 2 full movie hd download it has some good thrill nor good romance or songs.The plot was OK. aksar 2 full movie hd download The direction was bad.The screenplay was weak.The locations were OK.The songs were not that much good. aksar 2 full movie hd downloadThe acting from Zarheen khan was bad.Really man she cannot act nor she can act well nor she is attractive or sexy in this film she should really stop doing these kinds film like this and hate story.The role of this kinda films does not suits on her. aksar 2 full movie hd downloadAnd coz of that the movies are becoming flop.The male lead was so dumb man.He cannot act for sure.aksar 2 full movie hd download I don’t know how he became an actor I think he must have given bribe to became an actor.aksar 2 full movie hd download He cant act man.So guys overall its a bad film Avoid it and watch justice leauge or kareeb kareeb single single aksar 2 full movie hd download.

Leave a Reply

Your email address will not be published. Required fields are marked *

*